#TITLE:Through the Fire and Flames;
#SUBTITLE:(Final);
#ARTIST:DragonForce;
#TITLETRANSLIT:;
#SUBTITLETRANSLIT:;
#ARTISTTRANSLIT:;
#CREDIT:;
#BANNER:ttfaf-bn.png;
#BACKGROUND:ttfaf-bkgd.png;
#LYRICSPATH:;
#CDTITLE:!asshat-cdtitle.png;
#MUSIC:Through the Fire and Flames.ogg;
#OFFSET:0.000;
#SAMPLESTART:91.140;
#SAMPLELENGTH:22.400;
#SELECTABLE:YES;
#BPMS:0.000=100.000,32.000=200.000,96.000=100.000,112.000=200.000,688.000=100.000,722.000=170.000,850.000=200.000,1114.000=100.000,1146.000=200.000,1266.000=100.000,1278.000=200.000;
#STOPS:;
#BGCHANGES:;
// cache tags:
#FIRSTBEAT:0.000;
#LASTBEAT:1308.000;
#SONGFILENAME:Songs/nhac/Through the Fire and Flames (Asshat)/Through the Fire and Flames.sm;
#HASMUSIC:1;
#HASBANNER:1;
#MUSICLENGTH:440.502;
// end cache tags

//---------------dance-single - Asshat Steps----------------
#NOTES:
     dance-single:
     Asshat Steps:
     Hard:
     13:
     1.000,1.000,1.000,0.772,1.000,3730.000,673.000,340.000,0.000,4.000:
1001
0000
0100
0000
0010
0000
1000
0000
0100
0000
0010
0000
0001
0000
0010
0000
0001
0000
0010
0000
0100
0000
1000
0000
0100
0000
0010
0000
0001
0010
0100
1000
,
1001
0010
0100
0001
0010
0100
1000
0100
1000
0100
0010
0001
0010
0100
1000
0001
,
2100
0010
0001
0010
0100
0010
0001
0010
0100
0010
0001
0100
0001
0100
3010
0100
,
1001
0100
0010
0001
0010
0100
1000
0100
0012
0100
1000
0010
0100
1000
0103
0010
,
1001
0000
0010
0000
0100
0000
0001
0000
0010
0000
0100
0000
1000
0000
0100
0000
1000
0000
0100
0000
0010
0000
0001
0000
0010
0000
0100
0000
1000
0100
0010
0001
,
1001
0100
0010
1000
0100
0010
0001
0010
0001
0010
0100
1000
0100
0010
0001
1000
,
1002
0010
0100
1000
0010
0100
1000
0100
0010
0100
1000
0010
1000
0010
0103
0010
,
1001
0010
0100
1000
0100
0010
0001
0010
1001
0000
0110
0000
1001
0000
0000
0000
,
0001
1000
0100
1000
0100
1000
0001
1000
0100
1000
0100
1000
0001
1000
0100
1000
,
0001
1000
0100
1000
0100
1000
0001
1000
0100
1000
0100
1000
0001
1000
0100
1000
,
0001
0100
0010
0100
0010
0100
0001
0100
0010
0100
0010
0100
0001
0100
0010
0100
,
0001
0100
0010
0100
0010
0100
0001
0100
0010
0100
0010
0100
0001
0100
0010
0100
,
0010
1000
0100
1000
0100
1000
0010
1000
0100
1000
0100
1000
0010
1000
0100
1000
,
0010
1000
0100
1000
0100
1000
0010
1000
0100
1000
0100
1000
0010
1000
0100
1000
,
0001
0010
0100
0010
0100
0010
0001
0010
0100
0010
0100
0010
0001
0010
0100
0010
,
0001
1000
0100
0010
0100
0010
1000
0001
1100
0000
0110
0000
0022
0000
0033
0000
,
0010
1000
0100
1000
0100
1000
0010
1000
0100
1000
0100
1000
0010
1000
0100
1000
,
0010
1000
0100
1000
0100
1000
0010
1000
0100
1000
0100
1000
0010
1000
0100
1000
,
0010
0100
0001
0100
0001
0100
0010
0100
0001
0100
0001
0100
0010
0100
0001
0100
,
0010
0100
0001
0100
0001
0100
0010
0100
0001
0100
0001
0100
0010
0100
0001
0100
,
0001
1000
0100
1000
0100
1000
0001
1000
0100
1000
0100
1000
0001
1000
0100
1000
,
0001
1000
0100
1000
0100
1000
0001
1000
0100
1000
0100
1000
0001
1000
0100
1000
,
0100
1000
0010
1000
0010
1000
0100
1000
0010
1000
0010
1000
0100
1000
0010
1000
,
0010
0100
0010
0100
0010
0100
0010
0100
0010
0100
0010
0100
0010
0100
0010
0100
,
1010
1010
1010
0101
0101
0101
1010
1010
1010
1010
1010
0101
0101
0101
1010
1010
,
0011
0011
0011
1010
1010
1010
0011
0011
0011
0011
0011
1010
1010
1010
0011
0011
,
0101
0101
0101
0110
0110
0110
0101
0101
0101
0101
0101
0110
0110
0110
0101
0101
,
0001
0010
0100
0000
1000
0100
0010
0000
0001
0010
0100
0000
0000
0000
0010
0000
0001
0010
0100
1000
0100
0010
0001
0010
0100
1000
0100
0010
0001
0010
0100
1000
,
0001
0010
0100
0010
0001
0100
0010
1000
0010
0100
0001
0010
0100
0010
0001
1000
,
0010
0100
0001
0010
0100
0010
0001
1000
0010
0100
0001
0010
2002
0000
3003
0000
,
0001
0010
0100
0010
0001
1000
0100
1000
0001
1000
0100
1000
0010
0100
0001
1000
,
0100
1000
0010
1000
0100
0010
0100
1000
0100
0010
0100
1000
0001
0100
0010
1000
,
0001
0000
1000
0001
1000
0001
2002
0000
0000
0000
3003
0000
1001
0000
0000
0000
,
0110
0000
0010
0100
0010
0100
0220
0000
0330
0000
0110
0000
1100
0000
0110
0000
,
0011
1010
0101
0011
0110
1100
0110
1001
,
1001
0220
0330
1000
0100
0001
0010
0001
,
0001
0010
0100
0010
0001
1000
0010
0100
0010
1000
0001
1000
0010
0100
0001
0010
,
0100
0010
0100
1000
0100
0010
0001
0100
0001
0010
0001
1000
0020
0030
0100
0001
,
0100
0010
1000
0100
0010
0001
1000
0010
0100
0010
1000
0100
0010
0001
1000
0001
,
0100
0010
1000
0001
0100
0010
1000
0100
0010
0001
1000
0100
0010
0001
1000
0001
,
0100
0000
1000
0100
1000
0000
1001
0000
0110
0000
0011
0000
1100
0000
0110
0000
,
0010
0000
0001
1000
0010
0000
1100
0000
0110
0000
1001
0000
0110
0000
1001
0000
,
1000
0010
0100
0001
1000
0010
1000
0100
0010
0001
1000
0100
1000
0010
0100
0001
,
1001
0000
0000
1001
0000
0000
0000
1001
0000
0000
0000
1001
0000
0000
1001
0000
,
1000
0100
1000
0100
1000
0100
0010
0001
0010
0001
0010
0001
0100
1000
0100
1000
,
0010
0100
0010
0100
0010
0100
0001
1000
0001
1000
0001
1000
0010
0100
0010
0100
,
0001
0010
0001
0010
0001
0010
0100
1000
0100
1000
0100
1000
0001
0010
0001
0010
,
0001
1000
0100
0010
0001
1000
0010
1000
0100
1000
0010
1000
0001
0010
0100
0010
,
0001
1000
0001
1000
0001
1000
0100
0010
0100
0010
0100
0010
0001
1000
0001
1000
,
0100
0001
0100
0001
0100
0001
1000
0010
1000
0010
1000
0010
0100
0001
0100
0001
,
0100
0000
1100
0110
0011
0101
1010
1100
,
2000
3002
0203
0320
,
1031
0000
0110
0000
0100
0010
0100
0000
1100
0000
0110
0000
0001
1000
0001
0000
,
0110
0000
0011
0000
0001
0010
0001
0000
1010
0000
1100
0000
1000
0100
1000
0000
,
0110
0000
1010
0000
0010
1000
0010
0000
1001
0000
0011
0000
0100
0001
0100
0000
,
0011
0000
1010
0000
0100
1000
0100
0000
0110
0000
0101
0000
0010
0001
0010
0000
,
1100
0000
1010
0000
0100
0010
0001
0000
1001
0000
1010
0000
0100
0010
1000
0000
,
0011
0000
1100
0000
0100
1000
0001
0000
1010
0000
1001
0000
1000
0001
1000
0000
,
0110
0000
0101
0000
1000
0010
0100
0000
0011
0000
0101
0000
0010
1000
0001
0000
,
1000
0010
1000
0010
1000
0010
1000
0010
0100
0001
0100
0001
0100
0001
0100
0001
,
0110
0000
0011
0000
0001
0010
0001
0000
1100
0000
1010
0000
0100
1000
0100
0000
,
0101
0000
0110
0000
0010
0100
0001
0000
0110
0000
1100
0000
0001
0100
0010
0000
,
1100
0000
0011
0000
0100
0010
0001
0000
0110
0000
0101
0000
0010
1000
0010
0000
,
0110
0000
1100
0000
0010
0100
0001
0000
1100
0000
0101
0000
0100
0010
1000
0000
,
0010
0100
0001
0010
0100
1000
0001
0100
0010
0100
0001
0010
0100
1000
0001
1000
,
0010
0100
0001
1000
0010
0100
0001
0010
0100
1000
0001
0010
0100
1000
0001
1000
,
0100
0010
0001
0100
0001
1000
0010
1000
0100
0010
0001
0100
0001
1000
0100
0010
,
2002
0000
0000
0000
0000
0000
0000
3003
,
1010
0000
1100
0000
0010
0001
0100
0000
1100
0000
0011
0000
0010
0001
1000
0000
,
0101
0000
0011
0000
0001
0100
1000
0000
0110
0000
0101
0000
0001
0100
0010
0000
,
1001
0000
0110
0000
1000
0010
0001
0000
1100
0000
0110
0000
1000
0010
0100
0000
,
0101
0000
0110
0000
0001
0100
1000
0000
0110
0000
0101
0000
0001
0100
0010
0000
,
0100
0010
0001
0100
0010
1000
0001
0010
0100
0010
0001
1000
0010
0100
0010
1000
,
0001
0100
0010
0100
0001
1000
0100
1000
0010
1000
0001
0100
0001
0010
0100
0010
,
0001
1000
0010
0100
0010
1000
0001
0010
0100
1000
0010
0100
0010
0100
0001
1000
,
0010
0100
0001
0010
0100
1000
0001
0100
0010
0100
0001
0010
0100
1000
0001
1000
,
0110
0000
0101
0000
0010
1000
0100
0000
0011
0000
1100
0000
0010
1000
0001
0000
,
0110
0000
0011
0000
0010
1000
0100
0000
0101
0000
1010
0000
0010
1000
0001
0000
,
0110
0000
1010
0000
0100
0010
0001
0000
1100
0000
0110
0000
0100
0010
1000
0000
,
0101
0000
0110
0000
0001
1000
0010
0000
0110
0000
1100
0000
0001
1000
0100
0000
,
0001
0010
0100
1000
0100
0010
0001
0010
0100
1000
0100
0010
0001
0010
0100
1000
,
0110
0000
0000
0000
,
1001
2002
3003
1100
0110
0011
0101
0100
,
1001
2002
3003
0010
0100
0001
0220
0330
,
1001
0000
2002
0000
3003
0000
0100
0100
0010
0010
0100
0100
0001
0001
0100
0100
,
0011
1100
0110
2002
0000
0000
0000
3003
,
1100
0110
0011
2002
3003
1000
0010
0100
,
0001
0000
0100
0000
0010
0000
2000
0000
3000
0000
1000
0000
1000
0100
0010
0000
,
0110
0110
0011
0110
0110
0011
0110
0010
,
0001
0010
0100
1000
0001
0010
0100
1000
0001
0010
0100
1000
0001
0010
0100
0000
,
1001
0000
2002
0000
3003
0000
1000
1000
0100
0100
1000
1000
0010
0010
0001
0001
,
1001
2002
3003
1000
0100
0010
2002
3003
,
1000
0100
1000
0100
1000
0100
0010
0001
0010
0001
0010
0001
0100
0001
0100
0001
,
1000
0100
0010
2002
0000
0000
0000
3003
,
1001
0000
2002
0000
3003
0000
1000
0001
1000
0000
1000
0000
0100
0000
0010
0000
,
1001
0000
2002
0000
3003
0000
0001
1000
0001
0000
0100
0000
0220
0000
0330
0000
,
1000
0010
1000
0010
1000
0010
1000
0100
1000
0010
1000
0100
1000
0010
1000
0010
,
1000
0100
0010
0000
0022
0000
0033
0000
0220
0000
0330
2200
3300
0000
0220
0330
,
1001
0000
0000
0000
,
0000
0000
0000
0000
,
0001
0001
1010
0100
0001
0010
0011
0100
,
1000
0100
0110
0100
0010
0100
0011
0001
,
1000
0010
0110
1000
0100
0001
1100
0001
,
0100
1000
0101
0010
0100
0001
0110
0001
,
0010
1000
0101
0010
0100
1000
1010
1000
,
0010
0001
0010
0100
1000
0100
0010
0001
0010
0100
1000
0100
0010
0001
0010
0100
,
1000
0100
0010
0001
0010
0100
1000
0100
0010
0001
0010
0100
1000
0100
0010
0001
0010
0100
1000
0100
0010
0001
0010
0100
,
2002
0000
0000
0000
0000
0000
0000
3003
,
0100
0001
1000
0001
0100
0001
0100
0010
1000
0100
0010
0001
0010
0001
0100
0001
,
1000
0010
0100
0001
0010
0100
1000
0100
0010
0100
1000
0010
0100
0001
0100
0001
,
0010
0100
1000
0100
0010
0100
0010
0001
0010
0001
0100
0001
0100
0010
1000
0100
,
0010
0001
0100
0001
1000
0100
0010
0100
0010
0100
1000
0100
0010
0001
1000
0100
,
0010
0000
1000
0001
1000
2002
0000
0000
3003
0000
0100
0000
0010
0000
0100
0000
,
1001
0000
1000
0001
1000
2002
0000
0000
3003
0000
0010
0000
0100
0000
0010
0000
,
0100
0010
0001
0010
0100
0001
0100
1000
,
0001
1000
0100
0010
1000
0100
2002
3003
,
1000
0100
1000
0100
1000
0100
0010
0001
0010
0001
0010
0001
0100
1000
0100
1000
,
0010
0100
0010
0100
0010
0100
0001
1000
0001
1000
0001
1000
0010
0100
0010
0100
,
0001
0010
0001
0010
0001
0010
0100
1000
0100
1000
0100
1000
0001
0010
0001
0010
,
0001
0000
1100
0000
0110
0000
0011
0000
0110
0000
1100
0000
,
0001
1000
0001
1000
0001
1000
0100
0010
0100
0010
0100
0010
0001
1000
0001
1000
,
0100
0001
0100
0001
0100
0001
1000
0010
1000
0010
1000
0010
0100
0001
0100
0001
,
0100
0000
1100
0110
0011
0101
1010
1100
,
2000
3200
0320
0032
,
1103
0000
0011
0000
0100
0010
0100
0000
1010
0000
0110
0000
0001
1000
0001
0000
,
0110
0000
1010
0000
0001
0010
0001
0000
0110
0000
0101
0000
1000
0100
1000
0000
,
0101
0000
1100
0000
0010
1000
0010
0000
1010
0000
0110
0000
0100
0001
0100
0000
,
1010
0000
1001
0000
0100
1000
0100
0000
0110
0000
1001
0000
0010
0001
0010
0000
,
1100
0000
1010
0000
0100
0010
0001
0000
1010
0000
0110
0000
0100
0010
1000
0000
,
0101
0000
0110
0000
0100
1000
0001
0000
1100
0000
0011
0000
1000
0001
1000
0000
,
0110
0000
0011
0000
1000
0010
0100
0000
1010
0000
0101
0000
0010
1000
0001
0000
,
1000
0100
1000
0100
0010
0001
0010
0001
0100
0010
0100
0010
0001
1000
0001
1000
,
0011
0000
1100
0000
0010
0001
1000
0000
0101
0000
1010
0000
0001
0010
0100
0000
,
0110
0000
0101
0000
0010
0001
1000
0000
1001
0000
1100
0000
0001
0010
0100
0000
,
0110
0000
0011
0000
1000
0010
0100
0000
0110
0000
1100
0000
0010
1000
0001
0000
,
1010
0000
0101
0000
0010
0001
1000
0000
0011
0000
1100
0000
0001
0010
0100
0000
,
0101
0001
0100
0001
1001
0001
1000
0001
1010
0010
1000
0010
1001
0001
0100
0001
,
1010
0010
1000
0001
0101
0001
1000
0001
1100
0001
1000
0001
1010
0010
1000
0001
,
1001
1000
0100
0010
0001
0010
0100
1000
0100
0010
0001
0010
0100
1000
0100
0010
,
0001
0100
0001
0100
0001
0100
0001
1000
0001
1000
0001
1000
0001
0010
0001
0010
0001
0010
0001
1000
0001
1000
0001
1000
,
1001
0000
1001
0000
0010
1000
0010
0000
0110
0000
0011
0000
1000
0100
1000
0000
,
1010
0000
0101
0000
1000
0001
1000
0000
0011
0000
1100
0000
0010
0100
0010
0000
,
1100
0000
0011
0000
1000
0010
0100
0000
0101
0000
0011
0000
1000
0010
0001
0000
,
0110
0000
1001
0000
1000
0001
0100
0000
1001
0000
0110
0000
0001
0100
0001
0000
,
1000
0100
1000
0100
1000
0100
0010
0001
0010
0001
0010
0001
0100
1000
0100
1000
,
0010
0100
0010
0100
0010
0100
1000
0001
1000
0001
1000
0001
0100
0010
0100
0010
,
1000
0001
1000
0001
1000
0001
0010
0001
0010
0001
0010
0001
0100
0010
0100
0010
,
1000
0010
0100
0001
1000
0010
0100
0001
1000
0010
0100
0001
1000
0010
0100
0001
,
1100
0000
1001
0000
0100
0001
0100
0000
0101
0000
0110
0000
1000
0010
1000
0000
,
1100
0000
0101
0000
1000
0001
1000
0000
1100
0000
0110
0000
0100
0010
0100
0000
,
1001
0000
0101
0000
1000
0100
0010
0000
1001
0000
0110
0000
1000
0100
0001
0000
,
0110
0000
1100
0000
1000
0001
0010
0000
0101
0000
0110
0000
0001
0010
0001
0000
,
0010
0001
0010
0100
1000
0100
0010
0001
0010
0100
1000
0100
0010
0001
0010
0100
,
1001
0000
0000
0000
,
1001
2002
3003
1100
0110
0011
0101
1000
,
1001
2002
3003
1100
0110
0011
2002
3003
,
1001
2002
3003
1100
0110
0011
0101
1010
,
0101
1001
0110
1001
2002
0000
0000
3003
,
1001
0100
0010
0200
0300
0100
1001
0110
,
0011
0000
0110
0000
1100
0000
0011
0000
0000
0000
1000
0000
0100
0010
0001
0000
,
2000
0100
3100
2000
0100
3100
0010
0001
,
0010
0100
1000
0100
0220
0000
0000
0330
,
0000
1010
0101
1010
0101
1010
1100
0110
,
0000
1010
0101
1010
0101
0011
2002
3003
,
1000
0100
1000
0100
1000
0100
0010
0001
0010
0001
0010
0001
0100
0001
0100
0001
,
0110
0000
0110
0000
1001
0000
0220
0000
0000
0000
0000
0000
0000
0330
0000
0000
,
1001
0000
2002
0000
3003
0000
0010
0100
0001
0000
0010
0000
0100
0000
1000
0000
,
1001
0000
2002
0000
3003
0000
0100
0010
0100
0000
1000
0000
0220
0000
0330
0000
,
1000
0100
0010
0100
0010
0001
1000
0010
0100
0001
0010
0001
0010
0100
1000
0001
,
1000
0001
1000
0001
1000
0001
0000
0000
0110
0000
0000
1010
0000
0000
0101
0000
,
1001
0000
0000
0000
,
0000
0000
0000
0110
,
1001
0000
0000
0000
2000
0000
0000
0000
3200
0000
0000
0000
0320
0000
0030
0001
,
0110
0000
0002
0003
0020
0030
0200
1300
,
1001
0000
0000
0000
2000
0000
3000
0000
0002
0000
0003
0200
0300
0000
0020
0030
,
2002
0000
0000
0000
0000
0000
0000
3003
,
1001
0000
0002
0000
0023
0000
0230
1300
,
0110
0000
0000
0000
2000
0000
3000
0000
0200
0000
0300
0000
0020
0000
0030
0001
,
1001
0000
0000
0000
0002
0000
0003
0000
2000
0000
3000
0020
0030
0000
0200
0300
,
2002
0000
0000
0000
,
0000
0000
0000
0000
0000
0000
3003
0000
1000
0100
0010
0100
0010
0100
1000
0100
,
0010
0001
0100
0001
0100
0001
0100
0001
1100
0000
0000
0011
0000
0000
1010
0000
,
0101
0000
0000
1001
0000
0000
0110
0000
1000
0001
0100
0001
0100
0001
1000
0001
,
0010
0100
1000
0100
1000
0100
1000
0100
1010
0000
0000
0101
0000
0000
1100
0000
,
0011
0000
0000
0110
0000
0000
1001
0000
0001
0010
0100
0010
0100
0010
0001
0010
,
0100
1000
0010
1000
0010
1000
0010
1000
0011
0000
0000
1100
0000
0000
0101
0000
,
1010
0000
0000
1001
0000
0000
0110
0000
0001
1000
0010
1000
0010
1000
0001
1000
,
0100
0010
0001
0010
0001
0010
0001
0010
0101
0000
0000
1010
0000
0000
0011
0000
,
1100
0000
0000
0110
0000
0000
1001
0000
1001
0000
2002
0000
3003
0000
0100
0000
,
0010
0001
0020
0030
1100
2200
3300
0010
,
0001
0010
0100
1000
0220
0000
0330
0000
2000
3010
2000
3010
0200
0301
0200
0301
,
2000
3100
2000
3100
0020
0031
0020
0031
1000
1000
0100
0100
0010
0010
0100
1000
,
0100
0100
1000
0100
1000
0100
0220
0330
1001
0000
2002
0000
3003
0000
1000
0100
,
0020
0030
0000
0001
0000
0000
0020
0000
0230
0300
0000
2000
3000
0000
0010
0000
,
1000
0100
1000
0100
0020
0000
0030
0000
1000
0001
1000
0100
1000
0010
1000
0100
,
1000
0001
1000
0100
1000
0010
1000
0100
0001
0010
0001
0100
0001
0010
0100
1000
,
0110
0000
0110
0000
0110
0000
0110
0000
0001
0010
0100
0010
0100
0010
0001
0010
,
0100
1000
0010
1000
0010
1000
0010
1000
0011
0000
0000
1100
0000
0000
0101
0000
,
1010
0000
0000
1001
0000
0000
0110
0000
0001
1000
0010
1000
0010
1000
0001
1000
,
0100
0010
0001
0010
0001
0010
0001
0010
0101
0000
0000
1010
0000
0000
0011
0000
,
1100
0000
0000
0110
0000
0000
1001
0000
1000
0100
0010
0100
0010
0100
1000
0100
,
0010
0001
0100
0001
0100
0001
0100
0001
1100
0000
0000
0011
0000
0000
1010
0000
,
0101
0000
0000
1001
0000
0000
0110
0000
1000
0001
0100
0001
0100
0001
1000
0001
,
0010
0100
1000
0100
1000
0100
1000
0100
1010
0000
0000
0101
0000
0000
1100
0000
,
0011
0000
0000
0110
0000
0000
1001
0000
1001
0001
1000
0001
0020
0030
0100
1000
,
0001
0000
1000
0000
0100
0000
0020
0030
1100
0000
0000
0110
0000
0000
0011
0000
,
0002
0000
2003
0000
3002
0000
2003
3000
1000
0100
0010
0001
1000
0010
0100
0010
,
0100
0001
0100
0010
1000
0010
0100
0010
0001
0100
0001
0010
0100
0010
0100
1000
,
0100
0010
0100
1000
0220
0000
0330
0000
0220
0000
0330
2002
0000
3003
0220
0330
,
2200
0000
3300
2002
0000
3003
1001
0000
2000
3010
2000
3010
0002
0000
0003
0000
,
0001
0010
0100
2000
0000
0000
0000
3000
0100
0001
0010
0001
1000
0010
0100
0010
,
1000
0100
0010
0001
1000
0010
0100
0010
0001
0010
0100
0010
0100
1000
0100
1000
,
0100
1000
0100
0010
0001
1000
0001
1000
1001
0000
1000
0001
1000
0000
0100
0000
,
0010
0000
0001
0000
0010
0000
0100
0000
1001
0000
1000
0001
1000
0000
0100
0000
,
0001
0000
0010
0000
0200
0000
0300
0000
1001
0000
1000
0001
1000
0000
0010
0000
,
0100
0000
1000
0000
0100
0000
0010
0000
0100
0010
0100
1000
0001
1000
0100
0010
,
0001
0010
1000
0100
0022
0000
0033
0000
1001
0000
0001
1000
0001
0000
0010
0000
,
0100
0000
1000
0000
0100
0000
0010
0000
1001
0000
0001
1000
0001
0000
0010
0000
,
1000
0000
0100
0000
0020
0000
0030
0000
1001
0000
0001
1000
0001
0000
0100
0000
,
0010
0000
0001
0000
0010
0000
0100
0000
1000
0100
0010
0001
0010
0100
1000
0100
,
0011
0000
0110
0000
1100
0000
1001
0000
0001
0010
0100
1000
0100
0010
0100
1000
,
1100
0000
0000
0110
0000
0000
0011
0000
0000
1001
0000
0000
1000
0100
0010
0001
0000
0000
0001
0010
0100
1000
0000
0000
,
1000
0000
0100
0000
0010
0000
0001
0000
0000
0000
0000
0000
0001
0000
0010
0000
0100
0000
1000
0000
0000
0000
0000
0000
1000
0000
0000
0100
0000
0000
0010
0000
0000
0100
0000
0000
0010
0000
0000
0001
0000
0000
1000
0000
0000
0100
0000
0000
,
0010
0001
1000
0100
0010
0100
0010
0001
0010
0100
1000
0001
0010
0100
1000
0100
,
1000
0010
0100
0010
0002
0000
0000
0003
1000
0100
0010
0001
0010
0001
0010
0100
,
1000
0100
1000
0010
1000
0010
0100
0001
1000
0010
0100
0010
1000
0100
0010
0100
,
2002
3003
2002
3003
2002
0000
0000
3003
0001
1000
0001
0100
0001
0010
0100
1000
,
0100
1000
0100
0010
0001
0010
0100
1000
0001
0010
0001
0100
0001
0010
0100
1000
,
0100
0000
0000
1000
0000
0000
0100
0000
0000
0010
0000
0000
0002
0000
0000
0000
0000
0000
0000
0000
0000
0000
0003
0000
1000
0000
0000
0100
0000
0000
0010
0000
0000
0100
0000
0000
0010
0000
0000
0001
0000
0000
0010
0000
0000
0100
0000
0000
,
0010
0100
1000
0100
1000
0100
0010
0001
0010
0100
0010
0001
0100
0010
1000
0100
,
1000
0100
0010
0001
1000
0100
0010
0001
2002
0000
3003
0000
0110
0000
2002
0000
,
3003
0110
1001
0110
1100
0110
0011
0101
,
1010
0110
2002
3003
1001
2001
3100
0101
,
1001
0000
0220
0000
2330
0000
3000
0000
2002
3003
2002
0003
3100
0000
0010
0000
,
0002
0000
0013
0000
0220
0000
0330
0000
2000
3200
0320
0032
2003
3100
0010
0100
,
2000
3002
0203
0302
2003
3002
0013
0200
1300
0100
0010
0001
0010
0200
2300
3200
,
2300
3002
2003
3200
0302
0000
0003
0000
1000
0010
1000
0010
1000
0010
0100
0010
,
1000
0010
1000
0010
1000
0010
0100
0010
1000
0010
1000
0010
1000
0010
0100
0010
,
0002
0000
0000
0000
0000
0000
0000
0000
0020
0000
0000
0000
0033
0000
0000
0000
1000
0000
0000
0100
0000
0000
0010
0000
1000
0000
0100
0000
0010
0000
0001
0000
,
1000
0100
0010
0001
1000
0100
0010
0001
1001
0000
2002
0000
3003
0000
0010
0000
,
0100
0000
0000
1000
0000
0000
0220
0000
0000
0330
0000
0000
1000
0010
0100
0001
0010
0100
1000
0010
0100
0001
0010
0100
,
1000
0000
0010
0000
0100
0000
0001
0000
0010
0000
0100
0000
1000
0000
0010
0000
0100
0000
0001
0000
0010
0000
0100
0000
1000
0000
0000
0001
0000
0000
1000
0000
0000
0001
0000
0000
0100
0000
0000
0000
0000
0000
0020
0000
0000
0000
0000
0000
,
0230
0000
0000
0000
0310
0000
0000
0000
0001
0000
0000
0000
1000
0000
0000
0000
0001
0010
0100
1000
0001
0010
0100
1000
0001
0010
0100
1000
0001
0010
0100
1000
,
0001
0010
0100
1000
0001
0010
0100
1000
0001
0010
0100
1000
0001
0010
0100
1000
0001
0000
0010
0000
0100
0000
1000
0000
0001
0000
0100
0000
0010
0000
1000
0000
,
0001
0100
0001
1000
0002
0000
2003
3000
1000
0001
1000
0001
1000
0010
1000
0010
,
2002
0000
0000
0000
0000
0000
0000
3003
1000
0100
0010
0001
1000
0100
0010
0001
,
1000
0000
0010
0000
0100
0000
0001
0000
0010
0000
0100
0000
2002
0000
0000
0000
0000
0000
0000
0000
0000
3003
0000
0000
,
2002
0000
0000
0000
3003
0000
0100
0010
0001
0000
0010
0000
0100
0000
2002
0000
,
0000
0000
0000
0000
3003
0000
1000
0100
0001
0000
0110
0000
1100
0000
1100
0000
,
1010
0110
0011
0011
0101
0110
1100
0110
,
2002
0000
0000
3003
0000
0000
2002
3003
,
0110
0000
0110
0011
2002
0000
3003
0220
,
0330
0000
0220
0000
0330
0000
1100
0000
2200
3300
0110
0000
0011
0000
0101
0000
,
0110
1100
1010
0220
0000
0330
1000
0100
,
2000
3100
0020
0030
1000
0001
0100
0220
,
0330
0001
0010
0100
1000
0100
0010
0001
,
1000
0100
0010
0100
2000
0000
3000
0000
2000
0000
3100
0000
0200
0000
0310
0000
,
0020
0031
0002
0013
1100
1100
1100
0011
,
0011
0000
0000
0000
0000
0000
0011
0000
0000
0000
0000
0000
0022
0000
0000
0000
0000
0000
0033
0000
0000
0000
0000
0000
1000
0000
0000
0100
0000
0000
0010
0000
0000
0001
0000
0000
0010
0000
0000
0100
0000
0000
1000
0000
0100
0000
0010
0000
,
0001
0000
0000
0010
0000
0000
0100
0000
0000
1000
0000
0000
0100
0000
0000
0010
0000
0000
0001
0000
0010
0000
0100
0000
1000
0000
0000
0100
0000
0000
0010
0000
0000
0001
0000
0000
1000
0000
0000
0100
0000
0000
0010
0000
0000
0001
0000
0000
,
1000
0010
0100
0001
1000
0000
0010
0000
1000
0000
1000
0100
0010
0001
0010
0100
,
0001
0010
0100
1000
0001
0010
0100
1000
0001
1000
0100
0010
0001
0100
0010
1000
,
0100
0010
0001
0010
0100
1000
0100
0000
2002
0000
0000
0000
0000
3003
0200
0000
,
0000
0300
0020
0000
0000
0030
0001
0000
1100
0000
0110
0000
0000
0000
0220
0000
,
0330
0000
1001
0000
0000
0000
0100
0000
1000
0100
0010
0001
1000
0010
1000
0100
,
2002
0000
0000
3003
1000
0001
0100
0220
,
0000
0000
0000
0330
1100
1100
0001
1100
,
1100
0001
1100
0001
1100
0110
0000
0011
,
0000
0000
0011
0000
2002
0000
3003
0000
1000
0100
0010
0001
1000
0010
0100
0001
,
0010
0001
1000
0100
0010
0001
1000
0100
0010
0001
1000
0001
1000
0100
0010
0001
,
1000
0010
1000
0010
1000
0100
0010
0001
1000
1000
0001
0001
0010
0010
0001
0001
,
0100
0000
0000
0100
0000
0000
0001
0000
0000
0001
0000
0000
0010
0000
0000
0010
0000
0000
0001
0000
0000
0001
0000
0000
1000
0000
0001
0000
0100
0000
0010
0000
1000
0000
0001
0000
0010
0000
0100
0000
1000
0000
0001
0000
0100
0000
0010
0000
,
1000
0000
0100
0000
0010
0000
0001
0000
1000
0000
0010
0000
0100
0000
0001
0000
1000
0000
0001
0000
0010
0000
0100
0000
1000
0000
0000
0100
0000
0000
1000
0000
0000
0010
0000
0000
0001
0000
0000
0010
0000
0000
0100
0000
0000
1000
0000
0000
,
0010
0100
1000
0100
0010
0001
0010
0100
1000
1000
0100
0010
0001
0001
0010
0010
,
0100
0010
0100
1000
2002
0000
3003
0000
0010
0000
0100
0000
0010
0000
0220
0000
,
0330
0000
1000
0000
0000
0000
1000
0000
0100
0010
0200
0000
0300
0000
1000
0000
,
0100
0000
0010
0000
0022
0000
0033
0000
1000
0100
0010
0001
1000
0100
0010
0001
,
1000
0000
0000
0010
0000
0000
1000
0000
0000
0010
0000
0000
1000
0000
0000
0010
0000
0000
1000
0000
0000
0010
0000
0000
1000
0000
0100
0000
0010
0000
0001
0000
0010
0000
0100
0000
1000
0000
0100
0000
0010
0000
0001
0000
0010
0000
0100
0000
,
1000
0000
0000
0000
0000
0000
0000
0000
0100
0000
0000
0000
0000
0000
0000
0000
0010
0000
0000
0000
0000
0000
0000
0000
0001
0000
0000
0000
0000
0000
0000
0000
0010
0000
0000
0000
0000
0000
0000
0000
0100
0000
0000
0000
0000
0000
0000
0000
1000
0000
0000
0000
0000
0000
0000
0000
0100
0000
0000
0000
0000
0000
0000
0000
0010
0000
0000
0000
0000
0000
0000
0000
0001
0000
0000
0000
0000
0000
0000
0000
0010
0000
0000
0000
0000
0000
0000
0000
0100
0000
0000
0000
0000
0000
0000
0000
2000
0000
0000
0000
0000
0000
0000
0000
0000
0000
0000
0000
0000
0000
0000
0000
0000
0000
0000
0000
0000
0000
0000
0000
0000
0000
0000
0000
0000
0000
0200
0000
0000
0000
0000
0000
3000
0000
0000
0000
0000
0000
0000
0000
0000
0000
0000
0000
0000
0000
0000
0000
0000
0000
0000
0000
0000
0000
0000
0000
0300
0000
0000
0000
0000
0000
0020
0000
0000
0000
0000
0000
0000
0000
0000
0000
0000
0000
0000
0000
0000
0000
0000
0000
0030
0000
0000
0000
0000
0000
0002
0000
0000
0000
0000
0000
,
0000
0000
0000
0003
0000
0020
0000
0000
0000
0030
0000
0200
0000
0300
0000
0000
2002
0000
0000
0000
0000
0000
0000
0000
0000
0000
0000
0000
0000
0000
0000
0000
,
3003
0000
0000
2000
0000
3000
0000
0200
0000
0300
0000
0020
0000
0030
0000
0002
0000
0000
0000
0003
0000
0020
0000
0000
0000
0030
0000
0200
0000
0000
0300
2000
,
0000
0000
0000
3000
0000
0220
0000
0000
0000
0330
0000
2002
0000
3003
0000
0220
0000
0000
0000
0000
0000
0000
0000
0000
0000
0000
0000
0000
0000
0000
0000
0000
,
0330
0000
0000
0220
0000
0330
0000
2200
0000
3300
0000
0220
0000
0330
0000
0022
0000
0000
0000
0033
0000
0220
0000
0000
0330
0000
0000
2200
0000
3300
0000
0220
,
0000
0000
0330
0000
0000
0202
0000
0000
0303
0000
0000
2020
0000
3030
0000
2002
0000
0000
3003
0000
0000
2200
0000
0000
3300
0000
0000
0022
0000
0033
0000
2002
,
0000
0000
0000
0000
0000
0000
0000
0000
3003
0000
0000
0220
0000
0330
0000
2200
0000
0000
0000
3300
0000
0220
0000
0000
0330
0000
0000
0022
0000
0033
0000
0220
,
0000
0000
0330
0000
0000
2200
0000
0000
3300
0000
0000
0220
0000
0000
0330
0000
1001
0000
0000
0000
0000
0000
0000
0000
0000
0000
0000
0000
0000
0000
0000
0000
,
0000
0000
0000
0000
0000
0000
0000
0000
0110
0000
1010
0000
0001
0010
0001
0000
,
0110
0000
0101
0000
1000
0100
1000
0000
0110
0000
1100
0000
0010
1000
0010
0000
,
1001
0000
0110
0000
0100
0001
0100
0000
1100
0000
0011
0000
0100
0001
0100
0000
,
1001
0000
1100
0000
0010
1000
0010
0000
1010
0000
0110
0000
0001
0010
0001
0000
,
0110
0000
0011
0000
1000
0100
1000
0000
1000
0100
1000
0100
1000
0100
0010
0001
,
0010
0001
0010
0001
0100
0010
0100
0010
1000
0001
1000
0001
1000
0001
0100
1000
,
0100
1000
0100
1000
0010
0100
0010
0100
0001
0010
0100
1000
0100
0010
0001
1000
,
0010
0100
0001
1000
0100
1000
0010
0100
1000
0100
0010
0001
0010
0100
1000
0001
,
0100
0010
1000
0001
0010
0001
0100
0010
0101
0000
1100
0000
0010
1000
0010
0000
,
1010
0000
0011
0000
0100
0001
0100
0000
0101
0000
0110
0000
1000
0100
1000
0000
,
0101
0000
1001
0000
0001
0010
0001
0000
1000
0100
0010
0001
1000
0100
1000
0100
,
0010
0001
0100
0001
1000
0010
0100
0001
1000
0100
0010
0001
0100
0010
1000
0001
,
0100
0001
0010
0100
1000
0001
0010
0100
1000
0100
1000
0100
1000
0100
0010
0001
,
0010
0001
0010
0001
0100
0010
0100
0010
1001
0000
0000
0000
0000
0000
0000
0000
,
0000
0000
0000
0000
0000
0000
0000
0000
1000
0001
0010
0001
0010
0001
1000
0001
,
0010
0001
0010
0001
1000
0001
0010
0001
1000
0001
0010
0001
0010
0001
1000
0001
,
0010
0001
0010
0001
1000
0001
0010
0001
0100
0010
1000
0010
1000
0010
0100
0010
,
1000
0010
1000
0010
0100
0010
1000
0010
0100
0010
1000
0010
1000
0010
0100
0010
,
1000
0010
1000
0010
0100
0010
1000
0010
0100
0001
0010
0001
0010
0001
0100
0001
,
0010
0001
0010
0001
0100
0001
0010
0001
0100
0001
0010
0001
0010
0001
0100
0001
,
0010
0001
0010
0001
0100
0001
0010
0001
0010
0100
1000
0100
1000
0100
0010
0100
,
1000
0100
1000
0100
0010
0100
1000
0100
0010
0100
1000
0001
0010
0100
1000
0001
,
0100
0010
1000
0010
0100
0001
0100
0010
1000
0001
0010
0001
0010
0001
1000
0001
,
0010
0001
0010
0001
1000
0001
0010
0001
1000
0001
0010
0001
0010
0001
1000
0001
,
0010
0001
0010
0001
1000
0001
0010
0001
0100
0010
1000
0010
1000
0010
0100
0010
,
1000
0010
1000
0010
0100
0010
1000
0010
0100
0010
1000
0010
1000
0010
0100
0010
,
1000
0010
1000
0010
0100
0010
1000
0010
0100
0001
0010
0001
0010
0001
0100
0001
,
0010
0001
0010
0001
0100
0001
0010
0001
0100
0001
0010
0001
0010
0001
0100
0001
,
0010
0000
0000
0001
0000
0000
0010
0000
0000
0001
0000
0000
0100
0000
0000
0001
0000
0000
0010
0000
0000
0001
0000
0000
1000
0000
0000
0100
0000
0000
0010
0000
0000
0001
0000
0000
0010
0000
0100
0000
0010
0000
0100
0000
0000
0010
0000
0000
,
0001
1000
0010
1000
0100
1000
0100
0010
0100
1000
0001
1000
0010
0100
0001
0010
,
0001
0000
1000
0000
0001
0000
1000
0000
0001
0000
1000
0000
0001
0000
1000
0000
0001
0000
1000
0000
0001
0000
1000
0000
1001
0000
0000
1001
0000
0000
0110
0000
0000
1001
0000
0000
0000
0000
0000
0110
0000
0000
0000
0000
0000
1001
0000
0000
,
0000
0110
0000
1001
0011
0110
1100
0110
0011
0110
0110
0110
0000
1001
0000
1001
,
0000
0110
0000
1010
0110
0101
0110
1010
1001
0110
1001
0110
0000
1001
0000
1001
,
0000
1001
0000
1001
0110
1001
0110
0000
0001
0010
0100
1000
0001
0010
0100
1000
,
0001
0010
0100
1000
0001
0010
0100
1000
0001
0010
0100
1000
0001
0010
0100
1000
,
0001
0010
0100
1000
0001
0010
0100
1000
0001
0010
0100
1000
0001
0010
0100
1000
,
0001
0010
0100
1000
0001
0010
0100
1000
0001
0010
0100
1000
0001
0010
0100
1000
,
0001
0010
0100
1000
0001
0010
0100
1000
0011
0000
0110
0000
1100
0000
0110
0000
,
0011
0110
1100
0110
0022
0000
0000
0000
,
2233
0000
0000
0000
3300
0000
0000
0000
1000
0100
0010
0001
1000
0100
0010
0001
,
1100
0000
0110
0000
0011
0000
2002
0000
0000
0000
0000
0000
,
3003
0000
0000
0000
;
